Independence Day Resurgence 2016 Hindi - CAMRIP - Zi$t-CTRC

seeders: 64
leechers: 10
updated:
Added by Zist3133211 in Movies > Dubbed Movies
Torrent verified. Downloaded 7,272 times.

DownloadFast Safe Anonymous
movies, software, shows...
  • add Independence Day: Resurgence to bookmarks
  • Release date: 24 June 2016
  • Writers: Nicolas Wright (screenplay), James A. Woods (screenplay), Dean Devlin (screenplay), Roland Emmerich (screenplay), James Vanderbilt (screenplay), Dean Devlin (story by), Roland Emmerich (story by), Nicolas Wright (story by), James A. Woods (story by), Dean
  • Director: Roland Emmerich
  • Language: Hindi
  • Subtitles: English
Summary:

Two decades after the first Independence Day invasion, Earth is faced with a new extra-Solar threat. But will mankind's new space defenses be enough?


We always knew they were coming back. After 'Independence Day' redefined the event movie genre, the next epic chapter delivers global spectacle on an unimaginable scale. Using recovered alien technology, the nations of Earth have collaborated on an immense defense program to protect the planet. But nothing can prepare us for the aliens' advanced and unprecedented force. Only the ingenuity of a few brave men and women can bring our world back from the brink of extinction.

Written by CaptFlavius7947
Available in versions: x264x265TeleSyncCam
Independence Day Resurgence 2016 Hindi - CAMRIP - Zi$t-CTRC (Size: 844.73 MB)
  CTRC info.txt 433 bytes
  Independence Day Resurgence 2016 Hindi - CAMRIP - Zi$t-CTRC.mp4 844.73 MB

Description

image


image


image


image image image image image image


image



General
Complete name : Independence Day Resurgence 2016
Format : MPEG-4
Format profile : Base Media
Codec ID : isom
File size : 845 MiB
Duration : 2h 10mn
Overall bit rate mode : Variable
Overall bit rate : 908 Kbps
Writing application : Lavf55.22.102

Video
ID : 1
Format : AVC
Format/Info : Advanced Video Codec
Format profile : [email protected]
Format settings, CABAC : No
Format settings, ReFrames : 1 frame
Codec ID : avc1
Codec ID/Info : Advanced Video Coding
Duration : 2h 10mn
Bit rate : 750 Kbps
Width : 720 pixels
Height : 304 pixels
Display aspect ratio : 2.35:1
Frame rate mode : Constant
Frame rate : 25.000 fps
Color space : YUV
Chroma subsampling : 4:2:0
Bit depth : 8 bits
Scan type : Progressive
Bits/(Pixel*Frame) : 0.137
Stream size : 699 MiB (83%)

Audio
ID : 2
Format : AAC
Format/Info : Advanced Audio Codec
Format profile : LC
Codec ID : 40
Duration : 2h 10mn
Bit rate mode : Variable
Bit rate : 152 Kbps
Maximum bit rate : 192 Kbps
Channel(s) : 2 channels
Channel positions : Front: L R
Sampling rate : 48.0 KHz
Compression mode : Lossy
Stream size : 141 MiB (17%)
Language : Hindi


image

Related Torrents

torrent name size files age seed leech

Sharing Widget


Download torrent
844.73 MB
seeders:63
leechers:10
Independence Day Resurgence 2016 Hindi - CAMRIP - Zi$t-CTRC



To share this torrent use the code below and insert it into comments, status messages, forum posts or your signature.

Torrent: Independence Day Resurgence 2016 Hindi - CAMRIP - Zi$t-CTRC

Trackers

tracker name
http://pow7.com/announce
udp://tracker.openbittorrent.com:80/announce
udp://tracker.coppersurfer.tk:6969/announce
udp://tracker.leechers-paradise.org:6969/announce
udp://p4p.arenabg.com:1337/announce
http://tracker.tfile.me/announce
http://www.wareztorrent.com/announce
udp://tracker.aletorrenty.pl:2710/announce
udp://tracker.opentrackr.org:1337/announce
udp://tracker.eddie4.nl:6969/announce
ĀµTorrent compatible trackers list

Locations

name
KickassTorrents
ExtraTorrent
Torrent hash: 160DD9EC56146B237026A290FE20CC0B5178F5BC

All Comments

audio
5/10
video
6/10
please, leave only comments related to that torrent
Sign In

audio: 7video: 7
good for cam
audio: 4video: 5
its good for cam.
Show More All
audio: 7video: 7
audio: 5video: 5

User Opinions

Alex_Kid57.44K, AyrtonCar3788, ixinya2484, nishank547842152, irishjonyb2132, spacepuppy1958, Satafakap1393, hindu286, hougoumont189, fabb450 ... And 8 more
morawl714, jstier682, babge550, KayG_Piano310, VB3731124, Redips49, vicky06198440, UniqueAvinash23, Vintoos21, savage0833 ... And 1 more
Report a bug Open chat